extratorrent - A Fan Made Alternative Login   |   Register
Important Information
Registrations are open now
-------------------------------------

Please click here to register with Extratorrent2 to recieve latest updates, add bookmarks and to post comments.

Friends
Friends

1) Filebebo
-------------------------------------
2) MoviesDig
-------------------------------------
3) Torrentz2.cc
-------------------------------------
4) Torrents.me

Extratorrent2 > Categories > Movies > Death Wish (2018) x 1600 (2160p) HDR 5.1 x265 10bit Phun Psyz torrent


Browse Movies torrents

Death Wish (2018) x 1600 (2160p) HDR 5.1 x265 10bit Phun Psyz torrent


Death Wish (2018)
Name: Death Wish
Released Year: 2018
Runtime: 107 mins
Gener: Action, Crime, Drama
Director: Eli Roth
Country: USA
IMDB Rating: 6.8/10
Plot: Dr. Paul Kersey is an experienced trauma surgeon, a man who has spent his life saving lives. After an attack on his family, Paul embarks on his own mission for justice.

Download torrent: Download Death Wish (2018) x 1600 (2160p) HDR 5.1 x265 10bit Phun Psyz torrent Magnet link Bookmark Torrent: Death Wish (2018) x 1600 (2160p) HDR 5.1 x265 10bit Phun Psyz   Death Wish (2018) x 1600 (2160p) HDR 5.1 x265 10bit Phun Psyz torrent
Info hash: A05F1C11729A5472FAD941A78E82320C7FCA4711
Category: Categories > Movies
Trackers:
View all torrent trackers >
Health:
 seeds: 28 ,  leechers: 17 |  Update >
Torrent language: English English
Total Size: 3.3 GB
Files List:
1    View torrent files >
Uploader:
PhunPsyz
Torrent added: June 14, 2018, 2:31 am
Tags: Death, Wish, 2018, 2160p, x265, Phun, Psyz
IMDB: http://www.imdb.com/title/tt1137450
Users rating: ---, not rated. please login to rate.

Download Death Wish (2018) x 1600 (2160p) HDR 5.1 x265 10bit Phun Psyz torrent



Torrent Description

www.imdb.com/title/tt1137450/

Dr. Paul Kersey is an experienced trauma surgeon, a man who has spent his life saving lives. After an attack on his family, Paul embarks on his own mission for justice.

Source: GASMASK (HDR) (18.1 GiB)



Format : Matroska
Format version : Version 4 / Version 2
File size : 3.27 GiB
Duration : 1 h 46 min
Overall bit rate : 4 389 kb/s

Video
ID : 1
Format : HEVC
Format/Info : High Efficiency Video Coding
Format profile : Main @High
Codec ID : V_MPEGH/ISO/HEVC
Duration : 1 h 46 min
Bit rate : 3 982 kb/s
Width : 3 840 pixels
Height : 1 600 pixels
Display aspect ratio : 2.40:1
Frame rate mode : Constant
Frame rate : 23.976 (24000/1001) FPS
Color space : YUV
Chroma subsampling : 4:2:0
Bit depth : 10 bits
Bits/(Pixel*Frame) : 0.027
Stream size : 2.97 GiB (91%)
Writing library : x265 2.6:[Windows][GCC 7.1.0][64 bit] 10bit

Audio
ID : 2
Format : AC-3
Format/Info : Audio Coding 3
Format settings, Endianness : Big
Codec ID : A_AC3
Duration : 1 h 46 min
Bit rate mode : Constant
Bit rate : 320 kb/s
Channel(s) : 6 channels
Channel positions : Front: L C R, Side: L R, LFE
Sampling rate : 48.0 kHz
Frame rate : 31.250 FPS (1536 SPF)
Bit depth : 16 bits
Compression mode : Lossy
Stream size : 244 MiB (7%)
Title : Surround
Language : English

Text
Language : English
Language : English
Language : French
Language : French
Default : No
Forced : No


Download Death Wish (2018) x 1600 (2160p) HDR 5.1 x265 10bit Phun Psyz torrent


Related Torrents


Comments   (please login to add your comment!)


Home - Browse Torrents

Made with love by an Extratorrent Fan!